Información del archivo en el servidor
Partes: 4
Servidores: FJ
Tamaño: 700 MB

Sinopsis
Mientras cae la nieve en su noche de bodas, los recién casados John y
Jenny Grogan (Owen Wilson y Jennifer Aniston) toman la decisión de
dejar atrás los duros inviernos de Michigan y trasladarse al sur
para iniciar su nueva vida en la zona
oeste de Palm Beach, Florida.

Caps

Ficha Tenica

Dirección: David Frankel.
País: USA.
Año: 2008.
Duración: 115 min.
Género: Comedia romántica.
Interpretación: Owen Wilson (John Grogan),
Jennifer Aniston (Jenny Grogan), Eric
Dane (Sebastian Tunney), Alan Arkin
(Arnie Klein), Kathleen Turner (Sra. Kornblutt).
Guión: Scott Frank y Don Roos;
basado en el libro de John Grogan.
Producción: Karen Rosenfelt y Gil Netter.
Música: Theodore Shapiro.
Fotografía: Florian Ballhaus.
Montaje: Mark Livolsi.
Diseño de producción: Stuart Wurtzel.
Vestuario: Cindy Evans.
Estreno en USA: 25 Diciembre 2008.
Estreno en España: 18 Marzo 2009.

Datos de ripeo

General
Complete name : files/O2312UNAPAREJADE3CASTELLANOCD1.avi
Format : AVI
Format/Info : Audio Video Interleave
File size : 700 MiB
Duration : 50mn 48s
Overall bit rate : 1 925 Kbps
Writing application : VirtualDubMod 1.5.10.2 (build 2540/release)
Writing library : VirtualDubMod build 2540/release

Video
ID : 0
Format : MPEG-4 Visual
Format profile : Advanced Simple@L5
Format settings, BVOP : 2
Format settings, QPel : No
Format settings, GMC : No warppoints
Format settings, Matrix : Default (H.263)
Codec ID : XVID
Codec ID/Hint : XviD
Duration : 50mn 48s
Bit rate : 1 531 Kbps
Width : 608 pixels
Height : 256 pixels
Display aspect ratio : 2.40:1
Frame rate : 25.000 fps
Color space : YUV
Chroma subsampling : 4:2:0
Bit depth : 8 bits
Scan type : Progressive
Compression mode : Lossy
Bits/(Pixel*Frame) : 0.393
Stream size : 556 MiB (80%)
Writing library : XviD 1.1.2 (UTC 2006-11-01)

Audio
ID : 1
Format : AC-3
Format/Info : Audio Coding 3
Mode extension : CM (complete main)
Codec ID : 2000
Duration : 50mn 48s
Bit rate mode : Constant
Bit rate : 384 Kbps
Channel(s) : 6 channels
Channel positions : Front: L C R, Side: L R, LFE
Sampling rate : 48.0 KHz
Bit depth : 16 bits
Compression mode : Lossy
Delay relative to video : 16ms
Stream size : 140 MiB (20%)
Alignment : Split accross interleaves
Interleave, duration : 40 ms (1.00 video frame)
Interleave, preload duration : 500 ms

General
Complete name : files/O2312UNAPAREJADE3CASTELLANOCD2.avi
Format : AVI
Format/Info : Audio Video Interleave
File size : 697 MiB
Duration : 1h 0mn
Overall bit rate : 1 617 Kbps
Writing application : VirtualDubMod 1.5.10.2 (build 2540/release)
Writing library : VirtualDubMod build 2540/release

Video
ID : 0
Format : MPEG-4 Visual
Format profile : Advanced Simple@L5
Format settings, BVOP : 2
Format settings, QPel : No
Format settings, GMC : No warppoints
Format settings, Matrix : Default (H.263)
Codec ID : XVID
Codec ID/Hint : XviD
Duration : 1h 0mn
Bit rate : 1 225 Kbps
Width : 608 pixels
Height : 256 pixels
Display aspect ratio : 2.40:1
Frame rate : 25.000 fps
Color space : YUV
Chroma subsampling : 4:2:0
Bit depth : 8 bits
Scan type : Progressive
Compression mode : Lossy
Bits/(Pixel*Frame) : 0.315
Stream size : 528 MiB (76%)
Writing library : XviD 1.1.2 (UTC 2006-11-01)

Audio
ID : 1
Format : AC-3
Format/Info : Audio Coding 3
Mode extension : CM (complete main)
Codec ID : 2000
Duration : 1h 0mn
Bit rate mode : Constant
Bit rate : 384 Kbps
Channel(s) : 6 channels
Channel positions : Front: L C R, Side: L R, LFE
Sampling rate : 48.0 KHz
Bit depth : 16 bits
Compression mode : Lossy
Delay relative to video : 24ms
Stream size : 165 MiB (24%)
Alignment : Split accross interleaves
Interleave, duration : 40 ms (1.00 video frame)
Interleave, preload duration : 500 ms

Descarga
FJ

Servidor #1

Parte 1
http://share.wf/P9MSA6DV
Parte 2
http://share.wf/M9QN9GX3
Parte 3
http://share.wf/LUFDUP78
Parte 4
http://share.wf/UJEQJ07U

Servidor #2

Nota: Si encuentras un link caído avísame para volverlo a subir